Index Of Castle Mkv

interstella 5555 the 5tory of the 5ecret 5tar 5ystem movie/ 2008/2/23 19:57 -. Video Size : 2. Be sure to check back daily for updated information on activities that should be completed during each OID day! If you have any questions please do not hesitate to reach out via email between the hours of email during regular school hours. mkv 30-sep-2018 102mb Index of the big bang. High Quality Movie will be Update everyday. Money(2006). Impressionists. Magyar Mkv 1080P, 720P Regisztráció Nélkül Maleficent: Mistress Of Evil Jsd by daibudjeperfe Jul 5, 2020 1:43:26 GMT -5: Sign-ups. Watch popular movies and TV series on Verizon Fios. Name Last modified Size Description; Castle of Dragon. Série d'anthologie mêlant les références mythologiques à l'ambiance si particulière de Castle Rock, lieu de connexion de beaucoup des romans de Stephen King. The Forest Sociopolitical Documentary hosted by Mark Bonnar, published by BBC in 2018 - English narration Information-----Mark Bonnar reveals the hidden world of Galloway Forest, the country's largest afforested area. Recent Posts. Moderators: Fiona, Shrek. Latest 2020 Nollywood Movies, Latest 2020 Action Movies, Latest 2020 Nigerian Movies, Latest 2020 American Movies, Latest 2020 Love Movies, Latest 2020 Indian Movies, Latest 2020 Philipians Movies, Latest 2020 Chinese Movies, Latest 2020 Japanese Movies, Latest 2020 Movies, 2020 Codedwap Movies, 2020 Waploaded Movies, 2020 Netnaija Movies, 2020 IMDb Movies, Latest 2020 Korean Movies, Latest. mkv, converted to MP4 using VSDC Video Editor v5. By the way, I didn't upload this videos am. As it is very very huge collection I was not able to collect the links or the index of all the movies in this collection. But when his rock star lifestyle isn't enough, this bad boy goes looking for new trouble and finds it working with smart, beautiful Detective Kate Beckett. Store information. mp4: 2017-03-16 03:01: 1. Maisel Merry Happy Whatever Mr. The subreddit for all your Grey's Anatomy and Private Practice Discussion!. pdf: 2003-08-31 23. The Man in The Hight Castle Season 2 480p – The Man in the High Castle is an American dystopian Download… The Man in The High Castle Season 1 480p WebRip 150MB All Episodes By 480mkv Posted on December 19, 2016 June 11, 2020. 1 valid CSS 2 valid XHTML 1. pdf; 2010 05 05 Mac OSX Snow Leopard Server v10 6 3 HOTiSO. 17: 677: 720P Ver Dragon Quest: Your Story Mkv Sin Descargar Allpeliculas Ebml by tacucuwatee. movie My Mother's Castle (1990) pay yts hd on pc watch extension ios My Mother's Castle (1990) ISOHunt torrent index youtube 4Shared extension mkv download indian My Mother's Castle (1990) mobile mobile movie My Mother's Castle (1990) isoHunt file hosting without virus iCloud turbobit english. 69 Inuyasha the Movie 3 - Swords of an Honorable Ruler 1 End avi 1. RockS1迅雷下载,BT种子下载. Jane Morian expected another ordinary day. Index of the man in the high castle S02E09 720p. Friday and Saturday 8 a. Nome Return to Castle of Wolfenstein MULTI2. Inuyasha the Movie 1 - Affections Touching Across Time 1 End mkv 1. O Máskara Dual Áudio Completo MKV - Animes Totais. 1/10 Runtime: 60 min More Info: IMDb Link Story Line : Based on the stories of Stephen King, the series will intertwine characters and themes from the fictional town of Castle Rock…. svg/2000px-Cartoon_Network. org » WEB-DL/HDTV 1080p/720p » The Haunting of Margam Castle 2020 1080p WEB-DL DD5. Source: WEB-DL. Torrent: Return to Castle of Wolfenstein MULTI2. Discussion on ALL characters in any of the films or TV series are welcome. wav or other audio files for free. "Camouflaged Pillbox" Busbach Germany -1944 "88 MM Flak Gun" Homnef Germany -1945 "Dom Cathedral, Dom Hotel, and that Last Tank "Cologne Germany -1945 A very famous Battle "You are Now Entering Cologne Through the Courtesy of the 3rd Armored Division" Cologne Germany -1945: Cologne, Germany -1945. Index A-Z Daftar Film. INDEX 01 00:00:00 FILE "10 - The Castle Hall. Los Mejores Estrenos En HD 2013. Cloverfield. Télécharger Castle Rock - Saison 2 [COMPLETE] Sans Publicités (Sécurisé, Rapide et illimité). Jane Morian expected another ordinary day. Enjoy Castle. Season 8 Castle S08E01 720p WEBRIP x264. Richard Castle est un écrivain à succès spécialisé dans les thrillers. Do it all on the go, with your Verizon Fios subscription. I also use the "index" trick when I'm feeling a little lazy, cuz it's much easier. World of Dance (2017) Season 1-4 Complete 480p WEB-DL All Episodes; The Golden Palace Season 1 Complete 480p HDTV All Episodes; The Golden Girls (1985) Season 1-7 Complete 480p HDTV All Episodes. Kategori Jonathan Byrne, Jonathan Pryce, Keisha Castle-Hughes Hunstu. x264-TBS on Rapidgator , Uploaded , Uptobox , Go4up. Watch Castle. All content displayed on KCinemaIndo. 38Gb: March 12 2009: Guess. "1970 torrent. Recent Posts. Magyar Mkv 1080P, 720P Regisztráció Nélkül Maleficent: Mistress Of Evil Jsd by daibudjeperfe Jul 5, 2020 1:43:26 GMT -5: Sign-ups. Asia Pop! THE 12TH SUSPECT. Index of TV Series. It’s also a ‘highly rated campsite’ on campsites. Location Maryland Car(s) MKVI Golf TDI 6MT Feb 27, 2011 #11 This is an. 0 kHz Language : en. Descargar Peliculas En Calidad 4K HDR, HD 1080p, 720p, 3D SBS, DVDRip, Gratis Por MEGA. Latest 2020 Nollywood Movies, Latest 2020 Action Movies, Latest 2020 Nigerian Movies, Latest 2020 American Movies, Latest 2020 Love Movies, Latest 2020 Indian Movies, Latest 2020 Philipians Movies, Latest 2020 Chinese Movies, Latest 2020 Japanese Movies, Latest 2020 Movies, 2020 Codedwap Movies, 2020 Waploaded Movies, 2020 Netnaija Movies, 2020 IMDb Movies, Latest 2020 Korean Movies, Latest. Merlin must continue in his destiny to protect Camelot and the young Prince Arthur using his special gift: magic. Here you can draw support from the best free standalone video music downloader 5KPlayer to batch-download Game of Thrones Season 6/7/8 TV series full episodes HD 1080p 720p MP4 3GP MKV FLV and all seasons including GOT season 5/4/3/2/1 as well to watch offline if you are lookging for a free way. El castillo de Otranto Otranto's Castle; Collections of the Connecticut Historical Society (Volume 3) Epson workforce 500 manual pdf; Engineering Computations and Modeling in MATLABSimulink. https://saintwaldens. Joffrey and Margaery's wedding has come. While I'm sure you could use a castle wrench, a strap wrench will be a bit more universal. until she received the letter from England telling her that she'd inherited Unicorn Castle. 2009-s08e09-SD. 1 - Movie 3. what does white castle pay? And does anyone know how their shifts work, would it be difficult to get hired working 6AM-12PM or 2 PM? Answer Save. The Ark 2015 1080p AMZN WEB-DL H264-alfaHDlinks hosted on Uploaded, Rapidgator, Nitroflare, Mega, Openload, Free, Direct Stream is also available Via putlocker or torrents. Index Of Arrow S06e01 480p. In fact, it actually doesn't catalog everything. mkv snapshot 03. Ed and Childan go to Okamura to repay their debt with the sale from Franks forgery but are locked up in a storage room when Kido and his men pay a visit. io is a web-based application for taking notes. Get all of Hollywood. 69 Inuyasha the Movie 3 - Swords of an Honorable Ruler 1 End avi 1. Mythbusters 13x05 Transformers Part 07. mkv The Simpsons S01E04. the easiest way to backup and share your files with everyone. 46 GB | 01:29:54 | MKV | 854x480 | A_AC3, 48 Khz, 6 channels, 448 Kbps Genre: Action Provider: Lori. https://saintwaldens. Sent by raven from Castle Black Now: Mk6 GTI - United Grey/Interlagos Plaid, DSG, 2 door (APR Stage 1+ 93 octane B2. O Máskara Dual Áudio Completo MKV - Animes Totais. Run it on your MKV file and send me the log of the parsing process by email to matroska-users AT lists DOT matroska DOT org. 67 Inuyasha the Movie 4 - Fire on the Mystic Island 1 End mkv 1. El castillo de Otranto Otranto's Castle; Collections of the Connecticut Historical Society (Volume 3) Epson workforce 500 manual pdf; Engineering Computations and Modeling in MATLABSimulink. At Castle Black, Jon stands trial. 4 GB | Uploaded by Catar on 2018-01-24 19:56:37 UTC | #114156. Não recomendado para. The Castle was completed in 1908. 63: 398: For Phone Niemand In De Stad Avi English Sub 720P Gaao by ercucinacor May 16, 2020 18:31:10 GMT -8: Wall of Fame. mp4: 2017-03-16 03:01 Above. In todaytvseries website we are trying our best to provide you tv series in high quality and low size in the exact day of any series released with direct link that can help our users to download their favorite tv show in just 3 click, our goal in todaytvseries is to give you a link with high quality (480p | 720p) and low size (150mb | 200mb)for now all the the links are 480p but in near future. Asia Pop! THE 12TH SUSPECT. mkv 3 years 1337x. 9K '39 (Thirty-Nine) (I. 36 Itazura na Kiss 25 End avi 4. mkv Believe-s01e11-SD. Movie and TV Subtitles in multiple languages, thousands of translated subtitles uploaded daily. 0-CHD: 原盘Remux 32. If it can’t play your MKV’s, we have to find out why that is. High Quality Movie will be Update everyday. Video Format : mkv. 71MB 2020-03-18 05:28:13. Game of Thrones Season 4 Hindi Plot / Story: Tyrion welcomes a guest to King’s Landing. 480mkv 480mkv. mkv The Simpsons S01E05. 36 Itazura na Kiss 25 End avi 4. INDEX SERIES is a New York based womenswear brand defined by an effortless aesthetic. And on the desktop side there's mkv, useful for HD videos. Safety, recreational and corporate GPS POI data and installation support for all popular GPS units, GPS laptops and GPS software. :R32 OG Member # 002. mkv The Simpsons S01E09. Tales from. 0: 0: No posts have been made on this board. Mythbusters 13x05 Transformers Part 08. You are not logged in. Superiorpics Celebrity Forums » Forums » Celebrity Pictures » Actresses A-F » Dina Meyer - Castle 2x16 The Mistress Always Spanks Twice HD 720p Register User Forum List Calendar Active Topics FAQ. x264-TBS & Castle. All content displayed on KCinemaIndo. Index Of Arrow S06e01 480p. 37Gb: March 12 2009: Green. You can order these titles through anime import stores listed in our Shopping Guide, though some of these titles may be out of print. flac" WAVE TRACK 11 AUDIO TITLE "Tower of Hope" PERFORMER "Ayreon" REM COMPOSER "" ISRC NLB932000811 INDEX 01 00:00:00 FILE "12 - Cosmic Fusion. Franz Kafka - The Castle (Oxford World's Classics) only to index the Torrents meta information and provide search services. Castle and Beckett wake up handcuffed together in a locked room with no memory of how they got there. 1 valid CSS 2 valid XHTML 1. torrent: 0 金币: 13. The fictional Maine town of Castle Rock has figured prominently in King's literary career: Cujo, The Dark Half, IT and Needful Things, as well as novella The Body and numerous short stories such as Rita Hayworth and The Shawshank Redemption are either set there or contain references to Castle Rock. Ed and Childan go to Okamura to repay their debt with the sale from Franks forgery but are locked up in a storage room when Kido and his men pay a visit. Full Epsiodes of Medici: Masters of Florence season (1,2,3,4,5,6,7,8) available for downloading in mp4 mkv. mkv 3 years 1337x. Hooligans(2005). By the way, I didn't upload this videos am. Jon, Sansa, Melisandre, Davos en Podrick verlaten Castle Black. 56Gb: April 5 2010: Friends. The Castle was completed in 1908. Touted as the new Inspector Morse, this ITV detective show stars Michael Kitchen as a police inspector frustrated at being stuck at home investigating. 8GB - MkvCage Movies HD 3 months watchsomuch. With Hitoshi Takagi, Noriko Hidaka, Chika Sakamoto, Shigesato Itoi. net direct link download on index movies myvideolinks. Avro Canada CF-100 Mk5D Canuck ‘100504’ (29799632721). Free and direct download anime, drama and soundtracks. Index of /PDF_Arcade_Manuals_and_Schematics. We look forward to seeing you again soon. 4 GB Laputa Castle In The Sky 1986 BluRay REMUX 1080p AVC DTS-HD MA2. #EXTM3U #EXTINF:-1 tvg-id="CartoonNetworkUK" tvg-logo="https://upload. The series premiered on July 25, 2018 on Hulu. mkv Believe-s01e12-HD. Code: Select all $ ls /tmp/test ; rm -rf /tmp/test-lib/* Believe-s01e11-HD. 0: 0: No posts have been made on this board. mkv (HQ) Blu-Ray 720p: Blu. Lorsque sa femme se fait brûler vive, accusée à tort de sorcellerie, le vampire Vlad Dracula Tepes déclare qu'il prendra sa revanche sur le peuple de Wallachia. With Peter O'Toole, Daryl Hannah, Steve Guttenberg, Donal McCann. net world4ufree bolly4u downloadhub tamilrockers rarbg yify eztv. None of the equipment listed below has been used. Download howl no ugoku shiro howls moving castle bd subtitle indonesia nonton howl no ugoku shiro howls moving castle bd subtitle indonesia gratis howl no ugoku shiro howls moving castle bd subtitle indonesia 3gp mp4 mkv 144p 240p mhd 360p 480p 720p 1080p download anime subtitle indonesia. The third season of Marvel’s Daredevil finds the series and its hero getting back to basics. All files or contents hosted on third party websites. Richard Castle est un écrivain à succès spécialisé dans les thrillers. File Name File Size Date; Parent directory/--Castle_S02E01. Castle Under Fiery Skies. You Save: $ 3. File Name File Size Date; Parent directory/--Castle. 46 GB | 01:29:54 | MKV | 854x480 | A_AC3, 48 Khz, 6 channels, 448 Kbps Genre: Action Provider: Lori. 36 Itazura na Kiss 25 End avi 4. org » WEB-DL/HDTV 1080p/720p » The Haunting of Margam Castle 2020 1080p WEB-DL DD5. 5M: File: C. 68 XLocate is a file system index management. Store information. And on the desktop side there's mkv, useful for HD videos. Download Night School 2018 720p HD 480p HD, Kevin Hart, Bluray, English, Dual Audio, Mp4, Avi, Mkv, Hindi, Coolmoviez, Free, Watch Online, Torrent, Fzmovies, Toxicwap Trailer : Plot : A group of troublemakers are forced to attend night school in hope that they’ll pass the GED exam to finish high school. Whisper of the Heart. Daenerys is pointed to Meereen, the mother of all slave cities. Attention: This site does not support the current version of your web browser. com Sand Castle 2017 1080p WEBRip 6CH. 综艺娱乐哈尔的移动城堡bd高清下载,哈尔的移动城堡百度云资源与迅雷下载,主演:倍赏千惠子 木村拓哉 美轮明宏 我修院达也 神木隆之介,导演:宫崎骏。. 36 Inuyasha the Movie 2 - The Castle Beyond The Looking Glass 1 End mkv 1. Game of Thrones Season 4 Hindi Plot / Story: Tyrion welcomes a guest to King's Landing. 38 GB: 83: 137: TV Shows Torrents. Index of /SexScool Name Last modified Size Description : Parent Directory - AMG - Joe Dallesandr. Castlevania S03 E10 Www DownLoadSpeed IR srt server/pumpkin 20627. mkv Torrent | XDCC Monday 7th January 2013 11:29 PM ixlone 25 comments. 2 | 246,391 Votes: Not Listed - 72. jpg 1,280 × 720; 104 KB Maicching Machiko-sensei94-4. Find your favorite Disney Princess movies. 53M: 2018-11-03 08:30. There is a tool called matroskadiag. INDEX OF /DOWNLOAD. index of castlevania. Beyond the Wall, Bran Stark trains with the Three-Eyed Raven but alerts the Night King, who launches an attack of White Walkers. com The Head (2020) - 01x05 - Episode 5 Lucifer - 05x03 - ¡Diablo! The Head (2020) - 01x04 - Episode 4. x264-EVO Encodes in the resolutions 720p, 810p and 1080p, and in irregular HD resolutions, from non-retail (WEB or HDTV) sources, with one or more English audio tracks only. Only Yesterday. In todaytvseries website we are trying our best to provide you tv series in high quality and low size in the exact day of any series released with direct link that can help our users to download their favorite tv show in just 3 click, our goal in todaytvseries is to give you a link with high quality (480p | 720p) and low size (150mb | 200mb)for now all the the links are 480p but in near future. A provider for the Java Secure Socket Extension (JSSE). Latest 2020 Nollywood Movies, Latest 2020 Action Movies, Latest 2020 Nigerian Movies, Latest 2020 American Movies, Latest 2020 Love Movies, Latest 2020 Indian Movies, Latest 2020 Philipians Movies, Latest 2020 Chinese Movies, Latest 2020 Japanese Movies, Latest 2020 Movies, 2020 Codedwap Movies, 2020 Waploaded Movies, 2020 Netnaija Movies, 2020 IMDb Movies, Latest 2020 Korean Movies, Latest. mkv 285 MB. x264-TBS & Castle. Sign-up here to be in the tri-wizard tournament! 5: 20: Sem Baixar 4K 3Gp Tigertail Gratis by daibudjeperfe Jul 5, 2020 2:03:53 GMT -5: Preliminaries. movie My Mother's Castle (1990) pay yts hd on pc watch extension ios My Mother's Castle (1990) ISOHunt torrent index youtube 4Shared extension mkv download indian My Mother's Castle (1990) mobile mobile movie My Mother's Castle (1990) isoHunt file hosting without virus iCloud turbobit english. org Howls Moving Castle mkv Movies 16 hours limetorrents. Some items still sealed in box. File Name File Size Date; Parent directory/--Castle_S02E01. in does not accept responsibility for. And on the desktop side there's mkv, useful for HD videos. The Mask: The Animated Series é o título de uma série animada de televisão baseada nas histórias em quadrinhos do personagem The Mask; entretanto, é uma continuação do filme, de 1994. Resolution : 480p , 720p , 1080p File Type : MKV , Mp4 File Size : 150 – 300 MB Language : English Rating: 9. Loading Lost keywords. The Castle is also noteworthy due to the first feature film performance from a certain Eric Bana. Index of /SexScool Name Last modified Size Description : Parent Directory - AMG - Joe Dallesandr. 56Gb: April 5 2010: Friends. The One and Only Ivan (2020): Full Movie Download 720p HD & Mkv Project Power (2020): Full Movie Download 720p HD & Mkv The Kissing Booth 2 (2020): Full Movie Download 720p HD & Mkv. mkv 1 year monova. The Bouncy Castle APIs currently consist of the following: A lightweight cryptography API for Java and C#. Gaius, the court physician. Fear Barlow had 2 children. Magyar Mkv 1080P, 720P Regisztráció Nélkül Maleficent: Mistress Of Evil Jsd by daibudjeperfe Jul 5, 2020 1:43:26 GMT -5: Sign-ups. 53M: 2018-11-03 08:30. Some items still sealed in box. With Bill Skarsgård, André Holland, Lizzy Caplan, Melanie Lynskey. Descargar Peliculas En Calidad 4K HDR, HD 1080p, 720p, 3D SBS, DVDRip, Gratis Por MEGA. You can order these titles through anime import stores listed in our Shopping Guide, though some of these titles may be out of print. 3, APR Carbonio intake, Michelin Pilot Sport A/S 3+, Centric C-TEK slotted/drilled rotors, Hawk HPS brake pads, Tyrol brass caliper bushings, Double Apex carbon fiber shift paddles). jpg 400 × 622; 37 KB. pdf: 2003-08-31 23. 37Gb: March 12 2009: Green. mp4 Adventures. We recommend: Wordpress Social Login. Synopsis Novoland: The Castle in the Sky – Time Reversal After the battle of Sky City, Feng Ren declares war on the human tribe. Rest assured that VDownloader is the most complete and flexible solution out there. Game of Thrones Season 4 Hindi Plot / Story: Tyrion welcomes a guest to King's Landing. Directed by Hayao Miyazaki. 644 Capture video resolution: 1920x1080p, downscaled to 1280x720p in OBS (capture set to 60 FPS) Castlevania: Lords of Shadow (using PC Ultimate Edition on Steam, also available on 360 and PS3) Encoding. mkv Anime 4 days. thumbs/ 02-Apr-2014 11:56-Howl's. But when his rock star lifestyle isn't enough, this bad boy goes looking for new trouble and finds it working with smart, beautiful Detective Kate Beckett. Touted as the new Inspector Morse, this ITV detective show stars Michael Kitchen as a police inspector frustrated at being stuck at home investigating. 1) London's Lost Route to the Sea. From 1941 until 1943 when Grant Block was completed, the Castle served as dormitory and mess hall for cadets and staff officers at Royal Roads Military College. org Howls Moving Castle mkv Movies 16 hours limetorrents. mkv The Simpsons S01E03. Do it all on the go, with your Verizon Fios subscription. mkv, converted to MP4 using VSDC Video Editor v5. mkv The Simpsons S01E12. Castle S02E05 has been released on 2009. Castle S04E08 FRENCH HDTV. 48M: 2018-11-03 08:30: Castle_S02E02. > 2019-06-15 08:28 8. Castle S01-08 WEB-DL 1080p DD5. Robot Servant Watchmen The Man in the High Castle His Dark Materials See The End of the F***ing World The Family Man Rick and Morty Supernatural The Mandalorian Aladdin Another Life Stranger Things Breaking Bad Toy Story 4 The Wandering. File Name File Size Date; Parent directory/--Castle_S02E01. None of the equipment listed below has been used. Forum Index Alphabétique RSS Nous contacter. mkv 05-Feb-2018 14:40 35M. 1, en) – Drama / War movies 3 months torlock. Grave of the Fireflies. 0 kHz Language : en. On the grounds of Hatley Park and Royal Roads University in Victoria, Vancouver Island, BC. mkv The Simpsons S01E08. If found bad resources, please send a. com adalah situs download Movie & Tv Series MP4 480p & MKV 720p. 4 GB Laputa Castle In The Sky 1986 BluRay REMUX 1080p AVC DTS-HD MA2. Inversion of Control and Dependency Injection with Castle Windsor Container - Part I. mkv Believe-s01e12-HD. 46 GB | 01:29:54 | MKV | 854x480 | A_AC3, 48 Khz, 6 channels, 448 Kbps Genre: Action Provider: Lori. We recommend: Wordpress Social Login. 63: 398: For Phone Niemand In De Stad Avi English Sub 720P Gaao by ercucinacor May 16, 2020 18:31:10 GMT -8: Wall of Fame. jpg 5,340 × 3,560; 14. En Tokyo ocurren asesinatos misteriosos cometidos por Ghouls, seres desconocidos que comen carne humana, un día Kaneki Ken un joven de 18 años que cursa la Universidad conoce a una chica en un restaurante y la invita a salir, pero luego se da cuenta que ella es un Ghoul y sufre un ataque de parte de ella, pero afortunadamente sobrevive y la muchacha muere; debido a sus heridas los médicos. Castle Rock is an American psychological horror anthology web television series, featuring and inspired by characters, settings, and themes from the stories created by Stephen King and his fictional town of Castle Rock, Maine. But King Uther has banned the practice of sorcery and Merlin must keep his talents secret on pain of death. Season 8 Castle S08E01 720p WEBRIP x264. 36 Inuyasha Kanketsu-hen 26 End mkv 8. Download The Haunting of Margam Castle 2020 720p HDRip September 2, 2020 best movies , mkv hub , mkv movies , mkv rips , movies , tv-14 , yify mkv Leave a comment 11 Views Share. We've gotta long way to go before the tournament can start. mkv 30-sep-2018 102mb Index of the big bang. pdf; 2010 05 05 Mac OSX Snow Leopard Server v10 6 3 HOTiSO. Welcome , 🤍 Sharing Is Caring 🤍 , Thats why we do our best every day to provide you with the best quality movies / tv series , accessing a movie will show you that you can get torrent link / magnet link for the main torrent section , then you have a choice to pick from the backup torrents - plus you can stream it online also , isn't that cool :D , for the 3 torrent options we give you. In this video you can see the many sports and activities offered, such as volleyball, pottery, yoga, massage, the exercise course, and the kids' petting zoo, and you can watch excursions to the hillside caves, the Medieval castle, and the large natural spring. Over 5000 series to download with high quality files and direct links. 78:1, encoded with AVC MPEG. co is not affiliated with Index Ventures. Saint Amour 2016 FRENCH BRRiP x264 AC3-NLX5. Castle Adventure: 1984 Kevin Bales Castle Master: 1990 Teque Software Development: Incentive Software, Domark: Castle Master 2: The Crypt: 1991 Teque Software Development: Incentive Software, Domark: Castle of Dr. 1 valid CSS 2. 译 名 最美丽的事物/ 最美丽的时光(台) / 最美 / 最美的事物 / 第一件美丽的事情 / The First Beautiful Thing 片 名 La prima cosa bella 年 代 2010 产 地 意大利 类 别 喜. 综艺娱乐哈尔的移动城堡bd高清下载,哈尔的移动城堡百度云资源与迅雷下载,主演:倍赏千惠子 木村拓哉 美轮明宏 我修院达也 神木隆之介,导演:宫崎骏。. mp4 $ filebot -script fn:amc --output "/tmp/test-lib" --action symlink "/tmp/test" --q seri es --db TheTVDB --def skipExtract=y -non-strict | tee /tmp/filebot. mp4 is still highly popular, but it is getting obsolete. Index of The Man In The High Castle Season 4 With Episode Titles And Streaming Details Posted by Jay Patel November 16, 2019 The Man In The High Castle is back with another pack of fun for its viewers, as the fourth season is also out now. / 3130 Saturn Castlevania Symphony of the Night_I. Joffrey and Margaery’s wedding has come. The subreddit for all your Grey's Anatomy and Private Practice Discussion!. Index of the man in the high castle / series / season / 3 / 720p / x265 Index of the big bang theory s12e01. The Bouncy Castle APIs currently consist of the following: A lightweight cryptography API for Java and C#. 0-CHD: 原盘Remux 32. All content displayed on KCinemaIndo. **Great Art ** Arts Documentary hosted by Tim Marlow, published by ITV in 2018 - English narration ! **Information** ----- Great Art is ITV. mkv Castle S08E02 720p WEBRIP x264. 6 GiB: 2016-03-29 18:30: 0: 0: 56: 2 [NP-Complete] Serial Experiments Lain BD [v3] 17. 25 (Debian) Server at people. 69 Inuyasha the Movie 3 - Swords of an Honorable Ruler 1 End avi 1. 0 kHz Language : en. torrent: Source from ilCorSaRoBlu. info/file/Game of Thrones (2015) Hindi Dubbed [Season 05 Complete] Blu-Ray - 480P 720P - x264 - 1. This site is not responsible for the authenticity of the resources, please pay attention to screening. Index of 47 ronin mkv. Timothy West and Prunella Scales go in search of London's lost canal route from Teddington, through Surrey and Sussex, and all the way to the sea at Littlehampton. Howl's Moving Castle. Attention: This site does not support the current version of your web browser. "Camouflaged Pillbox" Busbach Germany -1944 "88 MM Flak Gun" Homnef Germany -1945 "Dom Cathedral, Dom Hotel, and that Last Tank "Cologne Germany -1945 A very famous Battle "You are Now Entering Cologne Through the Courtesy of the 3rd Armored Division" Cologne Germany -1945: Cologne, Germany -1945. Download everything you want untill you feel boring and DIE Howl's Moving Castle. The Man In The High Castle Season 4 DVD Overview. 54G][美国][2001][The Last Castle]. Format: MKV | mp4; Cast: Peter Dinklage, Lena Headey, Emilia Clarke, Kit Harington. This page contains a listing of home video releases of Hauru no Ugoku Shiro (Howl's Moving Castle). Howl's Moving Castle; Finding Neverland; Eternal Sunshine Of The Spotless Mind; Harry Potter and the Prisoner of Azkaban; The Lord Of The Rings III: The Return of the king; The Last Samurai; Memories of Murder; Kill Bill: Vol. until she received the letter from England telling her that she'd inherited Unicorn Castle. jpg 5,340 × 3,560; 14. mkv 3 years 1337x. Enjoy Castle. Fear Barlow had 2 children. index" format mkv, #portuguese film. thumbs/ 02-Apr-2014 11:56-Howl's. 2009-s08e09-HD. At Castle Black, Jon stands trial. This page was last edited on 19 December 2015, at 20:38. mkv 3 years 1337x. Mp4 is getting obsolete. pdf: 2003-08-31 23. 1 H264-EVO. torrent: 0 金币: 13. Clients using a TDD/TTY device: 1-800-539-8336. Sub-boards: Malkuth Castle, Military Offices , City Streets, Inn, Houses, Shops. Episode Recap The Man in the High Castle on TV. If it can’t play your MKV’s, we have to find out why that is. 55 GB: 0: 0 Castle Town Dandelion (BD 720p Hi10 AAC) [Dual-Audio] 7. While I'm sure you could use a castle wrench, a strap wrench will be a bit more universal. Castlevania S03 E10 Www DownLoadSpeed IR srt server/pumpkin 20627. Formato: MKV Áudio: Português | Inglês Legenda: PT-BR Qualidade de Áudio: 10 (2. History Documentary hosted by Nick Bolton, published by ZDF in 2019 - English narration [] Cover[] Information-- Original title: "Burgen - Mythos und Wahrheit"; German edition has 4 episodes -- Impregnable fortresses, homes of the rich and beautiful, magnificent buildings brimming with power – no other type of building symbolises an epoch as representative as the castle. From 1941 until 1943 when Grant Block was completed, the Castle served as dormitory and mess hall for cadets and staff officers at Royal Roads Military College. com best site to Download 480p tv series in small size but good quality with link live and easy to download also including index of tv series list. Castle Under Fiery Skies. The NOOK Book (eBook) of the Knights of the Zodiac (Saint Seiya), Vol. Los maleantes nacionales nos comprometemos esta versión sin clasificación protagonizada por Paris Hilton Simon Rex Paula Garcés Sarah Carter Geoffrey Arend - Averigüe por qué me encanta!. Latest 2020 Nollywood Movies, Latest 2020 Action Movies, Latest 2020 Nigerian Movies, Latest 2020 American Movies, Latest 2020 Love Movies, Latest 2020 Indian Movies, Latest 2020 Philipians Movies, Latest 2020 Chinese Movies, Latest 2020 Japanese Movies, Latest 2020 Movies, 2020 Codedwap Movies, 2020 Waploaded Movies, 2020 Netnaija Movies, 2020 IMDb Movies, Latest 2020 Korean Movies, Latest. Castle Season 1-8 Complete 480p All Episodes By admin2 Posted on July 2, 2019 August 3, 2020 After a serial killer imitates the plots of his novels, successful mystery novelist Richard “Rick” Castle receives permission from the Mayor of New York City to tag along with an NYPD homicide investigation team for research purposes. Directed by Neil Jordan. Moderators: Fiona, Shrek. Spirited Away. mkv The Simpsons S01E12. mkv - Duration: 4:32. Direct download via magnet link. 37 GB: 567: 1587: The Killer Robots Crash and Burn 2016 HDRip XviD AC3-EVO. Click "Order by Relevance" for exact results Minimum search is atleast 3 characters Use "word1 word2" for phrase search Use +word to force it in results Use -word to remove it from results. In todaytvseries website we are trying our best to provide you tv series in high quality and low size in the exact day of any series released with direct link that can help our users to download their favorite tv show in just 3 click, our goal in todaytvseries is to give you a link with high quality (480p | 720p) and low size (150mb | 200mb)for now all the the links are 480p but in near future. Beauty and the Beast: The Enchanted Christmas Visit a Beauty and the Beast Christmas past, when Belle does her best to warm the Beast’s castle with the spirit of the season. In todaytvseries website we are trying our best to provide you tv series in high quality and low size in the exact day of any series released with direct link that can help our users to download their favorite tv show in just 3 click, our goal in todaytvseries is to give you a link with high quality (480p | 720p) and low size (150mb | 200mb)for now all the the links are 480p but in near future. And no wonder, it's been with us since 2004 or something without significant evolution. It is currently Sat Sep 05, 2020 7:21 am. 1 H264-EVO. File Name File Size Date; Parent directory/--Castle_S02E01. 44M: 2018-11-03 08:33: Castle. 38 GB IMDb: 6,0. Yes, we will be subbing the Ilya Castle specials. Série d'anthologie mêlant les références mythologiques à l'ambiance si particulière de Castle Rock, lieu de connexion de beaucoup des romans de Stephen King. From 1941 until 1943 when Grant Block was completed, the Castle served as dormitory and mess hall for cadets and staff officers at Royal Roads Military College. With Bill Skarsgård, André Holland, Lizzy Caplan, Melanie Lynskey. S01E13 Storm The Castle. 译 名 最美丽的事物/ 最美丽的时光(台) / 最美 / 最美的事物 / 第一件美丽的事情 / The First Beautiful Thing 片 名 La prima cosa bella 年 代 2010 产 地 意大利 类 别 喜. Customer Service 1-800-KEY2YOU ® (539-2968). 2 M: 00:54:32: 1280x720 [720p] Castle. Castle S02E05 has been released on 2009. thumbs/ 02-Apr-2014 11:56-Howl's. 644 Capture video resolution: 1920x1080p, downscaled to 1280x720p in OBS (capture set to 60 FPS) Castlevania: Lords of Shadow (using PC Ultimate Edition on Steam, also available on 360 and PS3) Encoding. Ed and Childan go to Okamura to repay their debt with the sale from Franks forgery but are locked up in a storage room when Kido and his men pay a visit. 5 GiB: 2019-06-29 22:12: 4: 0: 304 [OldCastle] Attack No. :R32 OG Member # 002. Magyar Mkv 1080P, 720P Regisztráció Nélkül Maleficent: Mistress Of Evil Jsd by daibudjeperfe Jul 5, 2020 1:43:26 GMT -5: Sign-ups. اسم الفيلم : لص بغداد تصنيف العمل : كوميدي -أكشن الأنتاج : 2020 الحاوية : mkv الجودة : web-dl الصوت : aac الفيديو : x264 أبعاد الفيديو : 720p" تم توفير ملف الصوت منفصل " تحميل الملف مشاهده ممتعة. Index of TV Series. Nothing stays the same and all things come to an end; these just the facts of life. SINOPSIS Serie de TV (2009-Actualidad). mkv Thanks in advance. mkv Castle S08E06 720p WEBRIP. > 15-May-2019 14:55 834555226 Airaa. / 3130 Saturn Castlevania Symphony of the Night_I. Castle Season 1-8 Complete 480p All Episodes By admin2 Posted on July 2, 2019 August 3, 2020 After a serial killer imitates the plots of his novels, successful mystery novelist Richard “Rick” Castle receives permission from the Mayor of New York City to tag along with an NYPD homicide investigation team for research purposes. Download howl no ugoku shiro howls moving castle bd subtitle indonesia nonton howl no ugoku shiro howls moving castle bd subtitle indonesia gratis howl no ugoku shiro howls moving castle bd subtitle indonesia 3gp mp4 mkv 144p 240p mhd 360p 480p 720p 1080p download anime subtitle indonesia. until she received the letter from England telling her that she'd inherited Unicorn Castle. Tales from. Walder Frey celebrates the victory before being killed by Arya. Video The Castle is presented in the film's original aspect ratio of 1. 6 K--(720p) Castle. mkv Castle S08E02 720p WEBRIP x264. jpg 640 × 480; 48 KB Pop. 38Gb: March 12 2009: Guess. The Man in The Hight Castle Season 2 480p – The Man in the High Castle is an American dystopian Download… The Man in The High Castle Season 1 480p WebRip 150MB All Episodes By 480mkv Posted on December 19, 2016 June 11, 2020. Mp4 is getting obsolete. info Howls-Moving-Castle-mkv Movies 18 hours ibit. Attention: This site does not support the current version of your web browser. When a hotelier attempts to fill the chronic vacancies at his castle by launching an advertising campaign that falsely portrays the property as haunted, two actual ghosts show up and end up falling for two guests. index of series mkv: 1: 4: index of series mkv parent directory: 1: 11: castle s01e07: 1: 31: New keywords. We currently have 2,084,583 subtitles for 59,412 movies and 6,824 series in 100 languages in our database of which 62,212 are made by the community, 100,950 are adapted for hearing impaired and hard-of-hearing (SDH) viewers. Maisel Merry Happy Whatever Mr. All files or contents hosted on third party websites. 480mkv 480mkv. The Man In The High Castle Season 4 DVD Photos. En Tokyo ocurren asesinatos misteriosos cometidos por Ghouls, seres desconocidos que comen carne humana, un día Kaneki Ken un joven de 18 años que cursa la Universidad conoce a una chica en un restaurante y la invita a salir, pero luego se da cuenta que ella es un Ghoul y sufre un ataque de parte de ella, pero afortunadamente sobrevive y la muchacha muere; debido a sus heridas los médicos. Video The Castle is presented in the film's original aspect ratio of 1. flac" WAVE TRACK 10 AUDIO TITLE "The Castle Hall" PERFORMER "Ayreon" REM COMPOSER "" ISRC NLB932000810 INDEX 01 00:00:00 FILE "11 - Tower of Hope. Show off your gear here. Rick Castle is one of the world's most successful crime authors. What is a subscription and what is it for? A. In todaytvseries website we are trying our best to provide you tv series in high quality and low size in the exact day of any series released with direct link that can help our users to download their favorite tv show in just 3 click, our goal in todaytvseries is to give you a link with high quality (480p | 720p) and low size (150mb | 200mb)for now all the the links are 480p but in near future. The MKV format is superior as an alternative -- AVI is iffy, MOV most often won't work, & less software handles. 1 valid CSS 2 valid XHTML 1. Nome Return to Castle of Wolfenstein MULTI2. 7 GB | Uploaded by kamifari on 2015-07-13 02:13:01 UTC | #15065. 9 Mib Index of the man in the high castle Serie Suits Suits Tv Series Suits Tv Shows Suits Usa Men's Suits Gabriel Macht Suits Theme Song Meghan Markle Best Tv Shows. My Neighbor Totoro. In this video you can see the many sports and activities offered, such as volleyball, pottery, yoga, massage, the exercise course, and the kids' petting zoo, and you can watch excursions to the hillside caves, the Medieval castle, and the large natural spring. Index of TV Series. Format: MKV | mp4; Cast: Peter Dinklage, Lena Headey, Emilia Clarke, Kit Harington. Télécharger Castle Rock - Saison 2 [COMPLETE] Sans Publicités (Sécurisé, Rapide et illimité). Sent by raven from Castle Black Now: Mk6 GTI - United Grey/Interlagos Plaid, DSG, 2 door (APR Stage 1+ 93 octane B2. Gundam Thunderbolt - Bandit Flower (2017) (BD 720p Hi10 AAC) [Dual-Audio] [92C3AC6C]. org/wikipedia/commons/thumb/2/2c/Cartoon_Network_2004_logo. Castle Adventure: 1984 Kevin Bales Castle Master: 1990 Teque Software Development: Incentive Software, Domark: Castle Master 2: The Crypt: 1991 Teque Software Development: Incentive Software, Domark: Castle of Dr. Index of the gifted mkv. Browsing old_castle 's torrents (18) Category Name Link Size Movie 4 [62A71000]. 38Gb: March 12 2009: Guess. mkv - Duration: 4:32. mkv Castle S08E04 720p WEBRIP x264. World of Dance (2017) Season 1-4 Complete 480p WEB-DL All Episodes; The Golden Palace Season 1 Complete 480p HDTV All Episodes; The Golden Girls (1985) Season 1-7 Complete 480p HDTV All Episodes. 8GB - MkvCage Movies HD 3 months watchsomuch. Find a Local Branch or ATM. mkv The Simpsons S01E13. org » WEB-DL/HDTV 1080p/720p » The Haunting of Margam Castle 2020 1080p WEB-DL DD5. Cloverfield. Hooligans(2005). mkv Castle S08E02 720p WEBRIP x264. mkv The Simpsons S01E05. Total Files - 9 (Details given below) Total Video Length - 10 hr 06 min 41 sec. Walder Frey celebrates the victory before being killed by Arya. mp4 $ filebot -script fn:amc --output "/tmp/test-lib" --action symlink "/tmp/test" --q seri es --db TheTVDB --def skipExtract=y -non-strict | tee /tmp/filebot. If you have additional information on any of these titles, information on any titles we missed, or scans of any of the covers, please let us know. Attention: This site does not support the current version of your web browser. Dracula vs Frankenstein/Brain of Blood (1971) - MAY 25, 2020 GENRE: MAD SCIENTIST SOURCE: BLU-RAY (OWN COLLECTION) I saw my first Al Adamson movie (*Blood of Dracula's Castle*) in 2010, and was so del. Location Maryland Car(s) MKVI Golf TDI 6MT Feb 27, 2011 #11 This is an. 查看合集/Castle. None of the equipment listed below has been used. 3 K--[720p] Castle. It also enables you to customize the menu, define audio and edit video. Money(2006). Watch Castle episodes, get episode information, recaps and more. Born in Sandwich, Barnstable Co, MA on 16 Feb 1755 to Nathaniel Barlow and Joan Joanna SWIFT. Aiseesoft DVD Creator burns videos to DVD discs, DVD folders or ISO files. Name Last modified Size Status; Go to parent directory: Howls. Castle Mountain General Store and Front Desk hours: Sunday through Thursday 8 a. Softonic is the place to discover the best applications for your device, offering you reviews, news, articles and free downloads. It is his story. what does white castle pay? And does anyone know how their shifts work, would it be difficult to get hired working 6AM-12PM or 2 PM? Answer Save. 3 M: 00:42:10: 1280x720 (720p) Castle. mkv Anime 4 days. Index of /SexScool Name Last modified Size Description : Parent Directory - AMG - Joe Dallesandr. Download Night School 2018 720p HD 480p HD, Kevin Hart, Bluray, English, Dual Audio, Mp4, Avi, Mkv, Hindi, Coolmoviez, Free, Watch Online, Torrent, Fzmovies, Toxicwap Trailer : Plot : A group of troublemakers are forced to attend night school in hope that they’ll pass the GED exam to finish high school. Ed and Childan go to Okamura to repay their debt with the sale from Franks forgery but are locked up in a storage room when Kido and his men pay a visit. Teleserie de la ABC que mezcla intriga, drama y algo de humor que sigue las andanzas de Richard Castle (Nathan Fillion), un escritor de novelas de misterio cuya inspiración le viene a raíz de las consultas que realiza al departamento de policía de Nueva York, ciudad en la que transcurre la acción. mkv 03-May-2019 17:30 2438803066 Airaa. Impressionists. Watch Castle. Language - Malayalam. info/file/Game of Thrones (2015) Hindi Dubbed [Season 05 Complete] Blu-Ray - 480P 720P - x264 - 1. x264-EVO Encodes in the resolutions 720p, 810p and 1080p, and in irregular HD resolutions, from non-retail (WEB or HDTV) sources, with one or more English audio tracks only. Safety, recreational and corporate GPS POI data and installation support for all popular GPS units, GPS laptops and GPS software. index of series mkv: 1: 4: index of series mkv parent directory: 1: 11: castle s01e07: 1: 31: New keywords. Blindspot Succession Possible Worlds Tales from The Loop Castle The Americans Outer Banks Constantine Dragon Ball-Z Waco One Punch Man The. اسم الفيلم : لص بغداد تصنيف العمل : كوميدي -أكشن الأنتاج : 2020 الحاوية : mkv الجودة : web-dl الصوت : aac الفيديو : x264 أبعاد الفيديو : 720p" تم توفير ملف الصوت منفصل " تحميل الملف مشاهده ممتعة. what does white castle pay? And does anyone know how their shifts work, would it be difficult to get hired working 6AM-12PM or 2 PM? Answer Save. Index of Cults and Religions. The Castle is also noteworthy due to the first feature film performance from a certain Eric Bana. You can take your notes and share with others by providing the shorten url to a friend. 44M: 2018-11-03 08:33: Castle. 0-CHD: 原盘Remux 32. SINOPSIS Serie de TV (2009-Actualidad). StoryLine: The rapid spread of an unknown infection has left an entire city in ungovernable chaos, but one survivor remains alive in isolation. Atmos-EPSiLON. com have been collected from a wide range of resources, including but not limited to free websites, newsgroups and other sources and are believed to be in the ‘public domain’. 3, APR Carbonio intake, Michelin Pilot Sport A/S 3+, Centric C-TEK slotted/drilled rotors, Hawk HPS brake pads, Tyrol brass caliper bushings, Double Apex carbon fiber shift paddles). Daenerys is pointed to Meereen, the mother of all slave cities. Impressionists. mkv 4 torrent download locations Download Direct Howls. Full Epsiodes of Medici: Masters of Florence season (1,2,3,4,5,6,7,8) available for downloading in mp4 mkv. Saint Amour 2016 FRENCH BRRiP x264 AC3-NLX5. Brain: 1991 Sierra Online: Sierra Online Castles: 1991 Quicksilver Software: Interplay Productions: Castles: The Northern Campaign. Money(2006). zip: 12M : 24. mkv The Simpsons S01E13. The NOOK Book (eBook) of the Knights of the Zodiac (Saint Seiya), Vol. As we face this global pandemic together, we at Hotel Lake Castle want you to know the we are implementing safety guidelines within our property to ensure your health is safeguarded. Sub-boards: Malkuth Castle, Military Offices , City Streets, Inn, Houses, Shops. 38Gb: March 12 2009: Guess. Mission:, #Iron 1968 Castle, download, 720px weddings - Mission Inn Riverside Hotel & Spa The Man in the Iron Mask 50 Ninja Movies You Should See Before Getting Blinded by. info Howls-Moving-Castle-mkv Movies 18 hours ibit. mkv The Simpsons S01E09. FREE Shipping on $25. mkv Castle S08E05 720p WEBRIP x264. Parent Directory - '39 (Thirty-Nine) (I. So i will give you the direct link to the folder It contains around 700 movies. pdf: 2003-08-31 23. 1) London's Lost Route to the Sea. Film THE 12TH SUSPECT Directed by Ko Myoungsung CASTLE OF DREAMS. Index Of Arrow S06e01 480p. Index of Films Search Has Subtitles Exclude Shorts Search. 56Gb: April 5 2010: Friends. 68 XLocate is a file system index management. > 15-May-2019 14:55 834555226 Airaa. Created by Sam Shaw, Dustin Thomason. Download People of Earth for free from MEGA, Openload, etc, in: MP4, MKV in x264 or x265 or in 1080p or 720p, HDTV, WEB-DL and Bluray. Como forma de diminuir os custos de produção, a emissora informou que não irá renovar o contrato da atriz Stana Katic, o que significa que Beckett não irá retornar para a nona temporada da série caso o programa seja definitivamente renovado. 8分动作灾难片《#活着》hd韩语中字 ·2020年欧美7. The fictional Maine town of Castle Rock has figured prominently in King's literary career: Cujo, The Dark Half, IT and Needful Things, as well as novella The Body and numerous short stories such as Rita Hayworth and The Shawshank Redemption are either set there or contain references to Castle Rock. INDEX 01 00:00:00 FILE "10 - The Castle Hall. Index of Castle with all episodes from Season 1 to 8, Latest episodes of Castle with streamable links and fast download support. SINOPSIS Serie de TV (2009-Actualidad). اسم الفيلم : لص بغداد تصنيف العمل : كوميدي -أكشن الأنتاج : 2020 الحاوية : mkv الجودة : web-dl الصوت : aac الفيديو : x264 أبعاد الفيديو : 720p" تم توفير ملف الصوت منفصل " تحميل الملف مشاهده ممتعة. Witcher The Expanse Virgin River The Marvelous Mrs. Castlevania S03 E10 Www DownLoadSpeed IR srt server/pumpkin 20627. Hope you like it. Index of /dances Name Last modified Size Description. This Index contains brief definitions, descriptions or cross references on over 1,200 religious organizations and beliefs, as well as world religions (including Christianity) and related doctrines. A clean room implementation of the JCE 1. File Name File Size Date; Parent directory/--Castle_S02E01. Hunting(1997). To download a file, right-click on the link and choose the save option. Mp4 is getting obsolete. > 2018-01-19 18:30. Avro Canada CF-100 Mk5D Canuck ‘100504’ (29799632721). Video Format : mkv. mkv 285 MB. uk and Norden has received a Certificate of Excellence from Trip Advisor 5 years in a row! READ MORE Superb Location The site is within one mile of the world-famous […]. -#- 10 1/2 24 7: Twenty Four Seven '71 -A- Afterschool Akeelah and the Bee Alien Aliens American History X Angst Antichrist The Apostle The Art of Getting By Au Revoir Les Enfants Axed -B- The Babadook The Baby Baby Blues (2008) Bachelorette Baxter Beasts of No Nation Beautiful Boy Ben X Benny's Video A Better…. mkv 03-May-2019 17:30 2438803066 Airaa. Backup your init. it Code grvc. 0分历史战争片《前哨》bd中英双字 ·2019年日本7. jpg 5,340 × 3,560; 14. 92 MB | File count : 18 | Time : 2015-12-03. A disagreement pits experts against local knowledge as the hunt is on for the location of the Battle of Ford of the Biscuits from the Elizabethan Nine Years' War - with unexpected results. Grave of the Fireflies. All files or contents hosted on third party websites. The preferred method for filling data requests is through our web services, which provide data in an XML neutral format. mkv Castle S08E04 720p WEBRIP x264. avi [DDL1] [DDL2] The final episode of season 2! This is pretty much a Saber episode, so that should please many of you viewers out there. Location Maryland Car(s) MKVI Golf TDI 6MT Feb 27, 2011 #11 This is an. Rest assured that VDownloader is the most complete and flexible solution out there. mp4 $ filebot -script fn:amc --output "/tmp/test-lib" --action symlink "/tmp/test" --q seri es --db TheTVDB --def skipExtract=y -non-strict | tee /tmp/filebot. sphr_mkv_12x12_graphics_v0. Tales from. My Neighbor Totoro. com/thread/1101/nuevo-mkv-online-1080p-photograph. When a hotelier attempts to fill the chronic vacancies at his castle by launching an advertising campaign that falsely portrays the property as haunted, two actual ghosts show up and end up falling for two guests. File Name File Size Date; Parent directory/--Castle_S02E01. By the way, I didn't upload this videos am. Jansen, Lisette van den Berg, Ed Warby 4:04 28.